Recommend
First CAM
Amavas 2019 Hindi 720p WEB-DL foxtorrentsAvengers Endgame 2019 480p HDCAM V2 Dual Audio 700MB Hindi-English x264 CineVood ExclusiveAvengers Endgame 2019 720p HDCAM V2 Dual Audio 1.2GB Hindi-English x264 CineVood ExclusiveAvengers Endgame 2019 NEW 720p HDCAM-1XBET

WEB/HDRip
Amavas 2019 Hindi 720p WEB-DL foxtorrentsAvengers Endgame 2019 480p HDCAM V2 Dual Audio 700MB Hindi-English x264 CineVood ExclusiveAvengers Endgame 2019 720p HDCAM V2 Dual Audio 1.2GB Hindi-English x264 CineVood ExclusiveAvengers Endgame 2019 NEW 720p HDCAM-1XBET

Bluray/DVDs
Amavas 2019 Hindi 720p WEB-DL foxtorrentsAvengers Endgame 2019 480p HDCAM V2 Dual Audio 700MB Hindi-English x264 CineVood ExclusiveAvengers Endgame 2019 720p HDCAM V2 Dual Audio 1.2GB Hindi-English x264 CineVood ExclusiveAvengers Endgame 2019 NEW 720p HDCAM-1XBET

TV
Amavas 2019 Hindi 720p WEB-DL foxtorrentsAvengers Endgame 2019 480p HDCAM V2 Dual Audio 700MB Hindi-English x264 CineVood ExclusiveAvengers Endgame 2019 720p HDCAM V2 Dual Audio 1.2GB Hindi-English x264 CineVood ExclusiveAvengers Endgame 2019 NEW 720p HDCAM-1XBET


Torrent Details For "Tezaab (1988) 1080p AMZN WEB-DL DDP 2.0 ESub - DusIcTv [BwT]"

Torrent details
Cover
Download
Name:
Tezaab (1988) 1080p AMZN WEB-DL DDP 2.0 ESub - DusIcTv [BwT]
Controls:
Category:
Movies > Bollywood
Total Size:
11.43 GB
Info Hash:
901bdca5d44552d35b9ab93fc1cd6bb40163d7a3
Added By:
Unknown/NA
Added:
24-04-2019 10:06:40
Views:
279
Health:
Seeders:
20
Leechers:
39
Completed:
13

Movie Information
Title:
Tezaab (1988)
Genre:
Action, Drama, Romance
Runtime:
173 minutes
Rating:
7.0/10
Votes:
1652
Country:
India
Language:
Hindi
Director:
Producer:
Tagline:
Violent Love Story
Plot:
A college student, who wants to join the army and serve his country, becomes a criminal due to unforeseen circumstances.
Cast:
Anil Kapoor
Anil Kapoor
Mahesh Deshmukh (Munna)
Anupam Kher
Anupam Kher
Shyamlal (Mohini's dad)
Kiran Kumar
Kiran Kumar
Lotiya Pathan
Suresh Oberoi
Suresh Oberoi
Inspector Gagan Singh
Trailer:


Description
Note:Our Public website  Bwt.pw

Soon Private Site BWTorrents.tv also coming.

---------------------------------------------------------

---------------------------------------------------------




Tezaab (1988) 1080p AMZN WEB-DL DDP 2.0 ESub - DusIcTv


General
Complete name                            : Tezaab (1988) 1080p AMZN WEB-DL DDP 2.0 ESub - DusIcTv.mkv
Format                                   : Matroska
Format version                           : Version 4 / Version 2
File size                                : 11.4 GiB
Duration                                 : 2 h 42 min
Overall bit rate mode                    : Variable
Overall bit rate                         : 10.1 Mb/s
Encoded date                             : UTC 2018-12-15 15:44:30
Writing application                      : mkvmerge v28.2.0 ('The Awakening') 64-bit
Writing library                          : libebml v1.3.6 + libmatroska v1.4.9

Video
ID                                       : 1
Format                                   : AVC
Format/Info                              : Advanced Video Codec
Format profile                           : [email protected]
Format settings                          : CABAC / 4 Ref Frames
Format settings, CABAC                   : Yes
Format settings, RefFrames               : 4 frames
Codec ID                                 : V_MPEG4/ISO/AVC
Duration                                 : 2 h 42 min
Bit rate mode                            : Variable
Bit rate                                 : 9 839 kb/s
Maximum bit rate                         : 15.0 Mb/s
Width                                    : 1 920 pixels
Height                                   : 872 pixels
Display aspect ratio                     : 2.2:1
Original display aspect ratio            : 2.2:1
Frame rate mode                          : Constant
Frame rate                               : 25.000 FPS
Color space                              : YUV
Chroma subsampling                       : 4:2:0
Bit depth                                : 8 bits
Scan type                                : Progressive
Bits/(Pixel*Frame)                       : 0.235
Stream size                              : 11.2 GiB (98%)
Default                                  : Yes
Forced                                   : No
Color range                              : Limited
Color primaries                          : BT.709
Transfer characteristics                 : BT.709
Matrix coefficients                      : BT.709

Audio
ID                                       : 2
Format                                   : E-AC-3
Format/Info                              : Enhanced Audio Coding 3
Codec ID                                 : A_EAC3
Duration                                 : 2 h 42 min
Bit rate mode                            : Constant
Bit rate                                 : 224 kb/s
Channel(s)                               : 2 channels
Channel positions                        : Front: L R
Sampling rate                            : 48.0 kHz
Frame rate                               : 187.500 FPS (256 SPF)
Compression mode                         : Lossy
Stream size                              : 261 MiB (2%)
Title                                    : Hindi
Language                                 : Hindi
Service kind                             : Complete Main
Default                                  : No
Forced                                   : No

Text
ID                                       : 3
Format                                   : UTF-8
Codec ID                                 : S_TEXT/UTF8
Codec ID/Info                            : UTF-8 Plain Text
Duration                                 : 2 h 40 min
Bit rate                                 : 71 b/s
Count of elements                        : 2220
Stream size                              : 84.0 KiB (0%)
Title                                    : English [SDH]
Language                                 : English
Default                                  : No
Forced                                   : No

 
 
 
 
 
 

Quote:

- 1080p WEBHD, 2.0 Audio & English Subtitle!
- Enjoy DUS & ICTV Exclusive Release!

In case of re-seed on any torrent, please pm.
If you share this torrent anywhere, give credits to LP1 @ DusIcTv.


Comments

No comments still posted

Top
Copyright 2019 FOXTorrents.net -|- Page Generated In 1.854764 secs.
-|- RSS Feed -|- Feed Info
HERE torrent = $id"); $subrow = mysql_fetch_array($subres); $commcount = $subrow[0]; if ($commcount) { list($pagertop, $pagerbottom, $limit) = pager(10, $commcount, "torrents-details.php?id=$id&"); $commquery = "SELECT comments.id, text, user, comments.added, avatar, signature, username, title, class, uploaded, downloaded, privacy, donated FROM comments LEFT JOIN users ON comments.user = users.id WHERE torrent = $id ORDER BY comments.id $limit"; $commres = SQL_Query_exec($commquery); }else{ unset($commres); } if ($commcount) { print($pagertop); commenttable($commres, 'torrent'); print($pagerbottom); }else { print("
" .T_("NOCOMMENTS"). "
\n"); } require_once("backend/bbcode.php"); if ($CURUSER) { echo "
"; echo "
"; echo textbbcode("comment","body")."
"; echo "