Recommend
First CAM
Amavas 2019 Hindi 720p WEB-DL foxtorrentsAvengers Endgame 2019 480p HDCAM V2 Dual Audio 700MB Hindi-English x264 CineVood ExclusiveAvengers Endgame 2019 720p HDCAM V2 Dual Audio 1.2GB Hindi-English x264 CineVood ExclusiveAvengers Endgame 2019 NEW 720p HDCAM-1XBET

WEB/HDRip
Amavas 2019 Hindi 720p WEB-DL foxtorrentsAvengers Endgame 2019 480p HDCAM V2 Dual Audio 700MB Hindi-English x264 CineVood ExclusiveAvengers Endgame 2019 720p HDCAM V2 Dual Audio 1.2GB Hindi-English x264 CineVood ExclusiveAvengers Endgame 2019 NEW 720p HDCAM-1XBET

Bluray/DVDs
Amavas 2019 Hindi 720p WEB-DL foxtorrentsAvengers Endgame 2019 480p HDCAM V2 Dual Audio 700MB Hindi-English x264 CineVood ExclusiveAvengers Endgame 2019 720p HDCAM V2 Dual Audio 1.2GB Hindi-English x264 CineVood ExclusiveAvengers Endgame 2019 NEW 720p HDCAM-1XBET

TV
Amavas 2019 Hindi 720p WEB-DL foxtorrentsAvengers Endgame 2019 480p HDCAM V2 Dual Audio 700MB Hindi-English x264 CineVood ExclusiveAvengers Endgame 2019 720p HDCAM V2 Dual Audio 1.2GB Hindi-English x264 CineVood ExclusiveAvengers Endgame 2019 NEW 720p HDCAM-1XBET


Torrent Details For "18+.Dead Sexy.2018.720p.WEB-DL.AAC.H264.LLG"

Torrent details
Cover
Download
Name:
18+.Dead Sexy.2018.720p.WEB-DL.AAC.H264.LLG
Controls:
Category:
Movies > WEB-HD
Language:
 EnglishEnglish
Total Size:
964.33 MB
Info Hash:
f96e401a09e9138edcf39d94c0fbc9cf74d8cb54
Added By:
Unknown/NA
Added:
25-04-2019 16:22:46
Views:
334
Health:
Seeders:
99
Leechers:
362
Completed:
110

Movie Information
Title:
Dead Sexy (2018)
Genre:
Comedy
Runtime:
83 minutes
Rating:
5.6/10
Votes:
912
Country:
USA
Language:
English
Director:
Producer:
Writer:
Music:
Tagline:
Plot:
A Comedy - Meet Amber, Brandy and Cassie. These girls are about to encounter a paranormal force that is going to make them question the need for the opposite sex.


Description

Quote:



******************************Thumbnail:**********************

 

******************************Screenshots:********************

 Screenshot 1

 Screenshot 2

 Screenshot 3

 Screenshot 4

 Screenshot 5

 Screenshot 6

 Screenshot 7

 Screenshot 8

 Screenshot 9

 Screenshot 0


******************************************************

18+.Dead Sexy.2018.720p.WEB-DL.AAC.H264.LLG.mp4
Format                                   : MPEG-4
Format profile                           : Base Media
Codec ID                                 : isom (isom/iso2/avc1/mp41)
File size                                : 930 MiB
Duration                                 : 1 h 23 min
Overall bit rate                         : 1 548 kb/s
Writing application                      : Lavf57.56.101

Video
ID                                       : 1
Format                                   : AVC
Format/Info                              : Advanced Video Codec
Format profile                           : [email protected]
Format settings                          : CABAC / 4 Ref Frames
Format settings, CABAC                   : Yes
Format settings, RefFrames               : 4 frames
Codec ID                                 : avc1
Codec ID/Info                            : Advanced Video Coding
Duration                                 : 1 h 23 min
Bit rate                                 : 1 500 kb/s
Width                                    : 1 280 pixels
Height                                   : 670 pixels
Display aspect ratio                     : 1.910
Frame rate mode                          : Constant
Frame rate                               : 23.976 (23976/1000) FPS
Color space                              : YUV
Chroma subsampling                       : 4:2:0
Bit depth                                : 8 bits
Scan type                                : Progressive
Bits/(Pixel*Frame)                       : 0.073
Stream size                              : 887 MiB (95%)


Audio
ID                                       : 2
Format                                   : AAC LC
Codec ID                                 : mp4a-40-2
Duration                                 : 1 h 23 min
Bit rate mode                            : Constant
Bit rate                                 : 64.6 kb/s
Channel(s)                               : 2 channels
Channel layout                           : L R
Sampling rate                            : 48.0 kHz
Frame rate                               : 46.875 FPS (1024 SPF)
Compression mode                         : Lossy
Stream size                              : 38.8 MiB (4%)
Language                                 : English
Default                                  : Yes




********************************************************




Comments

No comments still posted

Top
Copyright 2019 FOXTorrents.net -|- Page Generated In 0.736709 secs.
-|- RSS Feed -|- Feed Info
HERE torrent = $id"); $subrow = mysql_fetch_array($subres); $commcount = $subrow[0]; if ($commcount) { list($pagertop, $pagerbottom, $limit) = pager(10, $commcount, "torrents-details.php?id=$id&"); $commquery = "SELECT comments.id, text, user, comments.added, avatar, signature, username, title, class, uploaded, downloaded, privacy, donated FROM comments LEFT JOIN users ON comments.user = users.id WHERE torrent = $id ORDER BY comments.id $limit"; $commres = SQL_Query_exec($commquery); }else{ unset($commres); } if ($commcount) { print($pagertop); commenttable($commres, 'torrent'); print($pagerbottom); }else { print("
" .T_("NOCOMMENTS"). "
\n"); } require_once("backend/bbcode.php"); if ($CURUSER) { echo "
"; echo "
"; echo textbbcode("comment","body")."
"; echo "