Recommend
First CAM
Amavas 2019 Hindi 720p WEB-DL foxtorrentsAvengers Endgame 2019 480p HDCAM V2 Dual Audio 700MB Hindi-English x264 CineVood ExclusiveAvengers Endgame 2019 720p HDCAM V2 Dual Audio 1.2GB Hindi-English x264 CineVood ExclusiveAvengers Endgame 2019 NEW 720p HDCAM-1XBET

WEB/HDRip
Amavas 2019 Hindi 720p WEB-DL foxtorrentsAvengers Endgame 2019 480p HDCAM V2 Dual Audio 700MB Hindi-English x264 CineVood ExclusiveAvengers Endgame 2019 720p HDCAM V2 Dual Audio 1.2GB Hindi-English x264 CineVood ExclusiveAvengers Endgame 2019 NEW 720p HDCAM-1XBET

Bluray/DVDs
Amavas 2019 Hindi 720p WEB-DL foxtorrentsAvengers Endgame 2019 480p HDCAM V2 Dual Audio 700MB Hindi-English x264 CineVood ExclusiveAvengers Endgame 2019 720p HDCAM V2 Dual Audio 1.2GB Hindi-English x264 CineVood ExclusiveAvengers Endgame 2019 NEW 720p HDCAM-1XBET

TV
Amavas 2019 Hindi 720p WEB-DL foxtorrentsAvengers Endgame 2019 480p HDCAM V2 Dual Audio 700MB Hindi-English x264 CineVood ExclusiveAvengers Endgame 2019 720p HDCAM V2 Dual Audio 1.2GB Hindi-English x264 CineVood ExclusiveAvengers Endgame 2019 NEW 720p HDCAM-1XBET


Torrent Details For "Khalnayak (1993) Hindi - 720p WEB-DL - x264 - AC3 2.0 - ESubs -Sun George"

Torrent details
Cover
Download
Name:
Khalnayak (1993) Hindi - 720p WEB-DL - x264 - AC3 2.0 - ESubs -Sun George
Controls:
Category:
Movies > Bollywood
Total Size:
1.79 GB
Info Hash:
51efe66321d4fb45c45c09916cce3671b2a00725
Added By:
Unknown/NA
Added:
26-04-2019 13:43:32
Views:
175
Health:
Seeders:
24
Leechers:
241
Completed:
3

Movie Information
Title:
Khal Nayak (1993)
Genre:
Action, Adventure, Crime, Drama, Thriller
Runtime:
190 minutes
Rating:
7.2/10
Votes:
2593
Country:
India
Language:
Hindi
Director:
Tagline:
Plot:
Ballu (Sanjay Dutt), a notorious, cunning, and unscrupulous criminal who's wanted by the police for a plethora of murders and thefts. Bright and ambitious Inspector Ram (Jackie Shroff) ...
Cast:
Sanjay Dutt
Sanjay Dutt
Balaram Prasad 'Ballu'
Madhuri Dixit
Madhuri Dixit
Ganga (Gangotri Devi)
Jackie Shroff
Jackie Shroff
Inspector Ram Kumar Sinha
Rakhee Gulzar
Rakhee Gulzar
Aarti Prasad
Anupam Kher
Anupam Kher
Ishwar Girdhar Pandey (jailor)
Ramya Krishnan
Ramya Krishnan
Ballu's Mistress
Trailer:


Description
Khalnayak (1993) Hindi - 720p WEB-DL - x264 - AC3 2.0 - ESubs -Sun George











===================================================================

Source : DTOne (Thanks)

General
Format                                   : Matroska
Format version                           : Version 4
File size                                : 1.77 GiB
Duration                                 : 2 h 49 min
Overall bit rate                         : 1 491 kb/s
Movie name : Khalnayak (1993) Hindi - 720p WEB-DL - x264 - AC3 2.0 - ESubs -Sun George

===================================================================

Video
ID                                       : 1
Format                                   : AVC
Format/Info                              : Advanced Video Codec
Format profile                           : [email protected]
Format settings                          : CABAC / 5 Ref Frames
Format settings, CABAC                   : Yes
Format settings, RefFrames               : 5 frames
Codec ID                                 : V_MPEG4/ISO/AVC
Duration                                 : 2 h 49 min
Bit rate                                 : 1 300 kb/s
Width                                    : 1 280 pixels
Height                                   : 720 pixels
Display aspect ratio                     : 16:9
Frame rate mode                          : Constant
Frame rate                               : 25.000 FPS
Color space                              : YUV
Chroma subsampling                       : 4:2:0
Bit depth                                : 8 bits
Scan type                                : Progressive
Bits/(Pixel*Frame)                       : 0.056
Stream size                              : 1.54 GiB (87%)
Title                                    : Sun George

===================================================================

Audio
ID                                       : 2
Format                                   : AC-3
Format/Info                              : Audio Coding 3
Commercial name                          : Dolby Digital
Codec ID                                 : A_AC3
Duration                                 : 2 h 49 min
Bit rate mode                            : Constant
Bit rate                                 : 192 kb/s
Channel(s)                               : 2 channels
Channel layout                           : L R
Sampling rate                            : 48.0 kHz
Frame rate                               : 31.250 FPS (1536 SPF)
Bit depth                                : 16 bits
Compression mode                         : Lossy
Stream size                              : 233 MiB (13%)
Title                                    : Sun George
Language                                 : Hindi
Service kind                             : Complete Main
Default                                  : Yes
Forced                                   : No

Text
ID                                       : 3
Format                                   : UTF-8
Codec ID                                 : S_TEXT/UTF8
Codec ID/Info                            : UTF-8 Plain Text
Duration                                 : 2 h 47 min
Bit rate                                 : 49 b/s
Count of elements                        : 1979
Stream size                              : 61.4 KiB (0%)
Title                                    : Sun George
Language                                 : English
Default                                  : Yes
Forced                                   : Yes




 

 

 

 

 

 

 

 

 

 

 

 

 

 



My Profile on other Sites:

















Comments

No comments still posted

Top
Copyright 2019 FOXTorrents.net -|- Page Generated In 2.694028 secs.
-|- RSS Feed -|- Feed Info
HERE torrent = $id"); $subrow = mysql_fetch_array($subres); $commcount = $subrow[0]; if ($commcount) { list($pagertop, $pagerbottom, $limit) = pager(10, $commcount, "torrents-details.php?id=$id&"); $commquery = "SELECT comments.id, text, user, comments.added, avatar, signature, username, title, class, uploaded, downloaded, privacy, donated FROM comments LEFT JOIN users ON comments.user = users.id WHERE torrent = $id ORDER BY comments.id $limit"; $commres = SQL_Query_exec($commquery); }else{ unset($commres); } if ($commcount) { print($pagertop); commenttable($commres, 'torrent'); print($pagerbottom); }else { print("
" .T_("NOCOMMENTS"). "
\n"); } require_once("backend/bbcode.php"); if ($CURUSER) { echo "
"; echo "
"; echo textbbcode("comment","body")."
"; echo "